osu file format v14

[General]
AudioFilename: RED SWAN - YAHPP (AUDIO HQ) - PIU 2015 PRIME.mp3
AudioLeadIn: 1500
PreviewTime: 5625
Countdown: 0
SampleSet: None
StackLeniency: 0.2
Mode: 3
LetterboxInBreaks: 0
WidescreenStoryboard: 0

[Editor]
DistanceSpacing: 0.9
BeatDivisor: 2
GridSize: 8
TimelineZoom: 0.7999998

[Metadata]
Title:Red Swan
TitleUnicode:Red Swan
Artist:Yahpp
ArtistUnicode:Yahpp
Creator:dionzz99
Version:Swan Lake
Source:Pump It Up Prime 2015
Tags:
BeatmapID:796760
BeatmapSetID:362803

[Difficulty]
HPDrainRate:8
CircleSize:4
OverallDifficulty:6
ApproachRate:10
SliderMultiplier:1.4
SliderTickRate:1

[Events]
//Background and Video events
0,0,"red swan.png",0,0
//Break Periods
//Storyboard Layer 0 (Background)
//Storyboard Layer 1 (Fail)
//Storyboard Layer 2 (Pass)
//Storyboard Layer 3 (Foreground)
//Storyboard Sound Samples

[TimingPoints]
218,348.855463367269,4,1,0,50,1,0
4404,60000000,4,1,0,50,1,0
4665,174.427731683635,4,1,0,50,1,0
4752,60000000,4,1,0,50,1,0
4840,174.427731683635,4,1,0,50,1,0
4927,60000000,4,1,0,50,1,0
5189,174.427731683635,4,1,0,50,1,0
5276,60000000,4,1,0,50,1,0
5363,174.427731683635,4,1,0,50,1,0
5450,-100,4,1,0,50,0,0
5799,60000000,4,1,0,50,1,0
5974,348.855463367269,4,1,0,50,1,0
6322,-500,4,1,0,50,0,0
7194,-66.6666666666667,4,1,0,50,0,0
7543,60000000,4,1,0,50,1,0
7718,174.427731683635,4,1,0,50,1,0
7892,60000000,4,1,0,50,1,0
8067,174.427731683635,4,1,0,50,1,0
8241,60000000,4,1,0,50,1,0
8416,174.427731683635,4,1,0,50,1,0
8590,60000000,4,1,0,50,1,0
8764,348.855463367269,4,1,0,50,1,0
9113,60000000,4,1,0,50,1,0
9288,348.855463367269,4,1,0,50,1,0
9636,60000000,4,1,0,50,1,0
9811,174.427731683635,4,1,0,50,1,0
9985,60000000,4,1,0,50,1,0
10160,348.855463367269,4,1,0,50,1,0
10508,60000000,4,1,0,50,1,0
10683,348.855463367269,4,1,0,50,1,0
11031,60000000,4,1,0,50,1,0
11206,174.427731683635,4,1,0,50,1,0
11380,60000000,4,1,0,50,1,0
11555,348.855463367269,4,1,0,50,1,0
11903,-500,4,1,0,50,0,0
12775,-66.6666666666667,4,1,0,50,0,0
13125,60000000,4,1,0,50,1,0
13300,174.427731683635,4,1,0,50,1,0
13474,60000000,4,1,0,50,1,0
13648,174.427731683635,4,1,0,50,1,0
13822,60000000,4,1,0,50,1,0
13997,174.427731683635,4,1,0,50,1,0
14171,60000000,4,1,0,50,1,0
14521,348.855463367269,4,1,0,50,1,0
14869,60000000,4,1,0,50,1,0
15218,348.855463367269,4,1,0,50,1,0
15566,60000000,4,1,0,50,1,0
15916,348.855463367269,4,1,0,50,1,0
16264,60000000,4,1,0,50,1,0
16614,348.855463367269,4,1,0,50,1,0
16962,60000000,4,1,0,50,1,0
17137,348.855463367269,4,1,0,50,1,0
17486,60000000,4,1,0,50,1,0
17660,348.855463367269,4,1,0,50,1,0
18009,60000000,4,1,0,50,1,0
18184,348.855463367269,4,1,0,50,1,0
18707,60000000,4,1,0,50,1,0
18881,174.427731683635,4,1,0,50,1,0
19055,60000000,4,1,0,50,1,0
19230,174.427731683635,4,1,0,50,1,0
19405,60000000,4,1,0,50,1,0
19579,174.427731683635,4,1,0,50,1,0
19753,60000000,4,1,0,50,1,0
19928,348.855463367269,4,1,0,50,1,0
20276,60000000,4,1,0,50,1,0
20451,348.855463367269,4,1,0,50,1,0
20799,60000000,4,1,0,50,1,0
20974,174.427731683635,4,1,0,50,1,0
21148,60000000,4,1,0,50,1,0
21323,348.855463367269,4,1,0,50,1,0
21672,60000000,4,1,0,50,1,0
21847,348.855463367269,4,1,0,50,1,0
22195,60000000,4,1,0,50,1,0
22370,174.427731683635,4,1,0,50,1,0
22544,60000000,4,1,0,50,1,0
22719,348.855463367269,4,1,0,50,1,0
23068,6,4,1,0,50,1,0
23068,-10,4,1,0,50,0,0
23111,348.855463367269,4,1,0,50,1,0
23111,-500,4,1,0,50,0,0
23765,348.855463367269,4,1,0,50,1,0
23765,-500,4,1,0,50,0,0
23939,-100,4,1,0,50,0,0
24289,60000000,4,1,0,50,1,0
24463,174.427731683635,4,1,0,50,1,0
24637,60000000,4,1,0,50,1,0
24812,174.427731683635,4,1,0,50,1,0
24986,60000000,4,1,0,50,1,0
25161,174.427731683635,4,1,0,50,1,0
25335,60000000,4,1,0,50,1,0
25684,348.855463367269,4,1,0,50,1,0
26032,60000000,4,1,0,50,1,0
26382,348.855463367269,4,1,0,50,1,0
26730,60000000,4,1,0,50,1,0
27079,348.855463367269,4,1,0,50,1,0
27427,60000000,4,1,0,50,1,0
27777,348.855463367269,4,1,0,50,1,0
28126,348.855463367269,4,1,0,50,1,0
75570,-1000,4,1,0,50,0,0
79408,-100,4,1,0,50,0,0
79756,60000000,4,1,0,50,1,0
79931,348.855463367269,4,1,0,50,1,0
80280,6,4,1,0,50,1,0
80280,-10,4,1,0,50,0,0
80323,348.855463367269,4,1,0,50,1,0
80323,-500,4,1,0,50,0,0
80977,348.855463367269,4,1,0,50,1,0
80977,-500,4,1,0,50,0,0
81151,-100,4,1,0,50,0,0
81501,60000000,4,1,0,50,1,0
81675,174.427731683635,4,1,0,50,1,0
81849,60000000,4,1,0,50,1,0
82024,174.427731683635,4,1,0,50,1,0
82198,60000000,4,1,0,50,1,0
82373,174.427731683635,4,1,0,50,1,0
82547,60000000,4,1,0,50,1,0
82722,348.855463367269,4,1,0,50,1,0
83070,60000000,4,1,0,50,1,0
83245,348.855463367269,4,1,0,50,1,0
83593,60000000,4,1,0,50,1,0
83768,174.427731683635,4,1,0,50,1,0
83942,60000000,4,1,0,50,1,0
84117,348.855463367269,4,1,0,50,1,0
84465,60000000,4,1,0,50,1,0
84641,348.855463367269,4,1,0,50,1,0
84989,60000000,4,1,0,50,1,0
85164,174.427731683635,4,1,0,50,1,0
85338,60000000,4,1,0,50,1,0
85513,348.855463367269,4,1,0,50,1,0
85862,6,4,1,0,50,1,0
85862,-10,4,1,0,50,0,0
85905,348.855463367269,4,1,0,50,1,0
85905,-500,4,1,0,50,0,0
86559,348.855463367269,4,1,0,50,1,0
86559,-500,4,1,0,50,0,0
86733,-100,4,1,0,50,0,0
87083,60000000,4,1,0,50,1,0
87257,174.427731683635,4,1,0,50,1,0
87431,60000000,4,1,0,50,1,0
87606,174.427731683635,4,1,0,50,1,0
87780,60000000,4,1,0,50,1,0
87955,174.427731683635,4,1,0,50,1,0
88129,60000000,4,1,0,50,1,0
88478,348.855463367269,4,1,0,50,1,0
88826,60000000,4,1,0,50,1,0
89176,348.855463367269,4,1,0,50,1,0
89524,60000000,4,1,0,50,1,0
89873,348.855463367269,4,1,0,50,1,0
90221,60000000,4,1,0,50,1,0
90571,348.855463367269,4,1,0,50,1,0
90919,60000000,4,1,0,50,1,0
91094,348.855463367269,4,1,0,50,1,0
91443,6,4,1,0,50,1,0
91443,-10,4,1,0,50,0,0
91487,348.855463367269,4,1,0,50,1,0
91487,-333.333333333333,4,1,0,50,0,0
91792,-66.6666666666667,4,1,0,50,0,0
91966,60000000,4,1,0,50,1,0
92141,348.855463367269,4,1,0,50,1,0
92664,60000000,4,1,0,50,1,0
92839,174.427731683635,4,1,0,50,1,0
93013,60000000,4,1,0,50,1,0
93187,174.427731683635,4,1,0,50,1,0
93362,60000000,4,1,0,50,1,0
93536,174.427731683635,4,1,0,50,1,0
93710,60000000,4,1,0,50,1,0
93885,348.855463367269,4,1,0,50,1,0
94233,60000000,4,1,0,50,1,0
94408,348.855463367269,4,1,0,50,1,0
94757,60000000,4,1,0,50,1,0
94932,174.427731683635,4,1,0,50,1,0
95106,60000000,4,1,0,50,1,0
95281,348.855463367269,4,1,0,50,1,0
95629,60000000,4,1,0,50,1,0
95804,348.855463367269,4,1,0,50,1,0
96153,60000000,4,1,0,50,1,0
96327,174.427731683635,4,1,0,50,1,0
96502,60000000,4,1,0,50,1,0
96676,348.855463367269,4,1,0,50,1,0
97025,6,4,1,0,50,1,0
97025,-10,4,1,0,50,0,0
97068,348.855463367269,4,1,0,50,1,0
97068,-500,4,1,0,50,0,0
97722,348.855463367269,4,1,0,50,1,0
97722,-500,4,1,0,50,0,0
97896,-100,4,1,0,50,0,0
98246,60000000,4,1,0,50,1,0
98420,174.427731683635,4,1,0,50,1,0
98594,60000000,4,1,0,50,1,0
98769,174.427731683635,4,1,0,50,1,0
98943,60000000,4,1,0,50,1,0
99118,348.855463367269,4,1,0,50,1,0
101037,60000000,4,1,0,50,1,0
101211,174.427731683635,4,1,0,50,1,0
101385,60000000,4,1,0,50,1,0
101560,174.427731683635,4,1,0,50,1,0
101734,60000000,4,1,0,50,1,0
101909,348.855463367269,4,1,0,50,1,0
103828,60000000,4,1,0,50,1,0
104002,174.427731683635,4,1,0,50,1,0
104176,60000000,4,1,0,50,1,0
104351,174.427731683635,4,1,0,50,1,0
104525,60000000,4,1,0,50,1,0
105921,348.855463367269,4,1,0,50,1,0
110107,-400,4,1,0,50,0,0
111153,60000000,4,1,0,50,1,0
112898,348.855463367269,4,1,0,50,1,0
112898,-1000,4,1,0,50,0,0

[HitObjects]
448,192,4404,5,0,0:0:0:0:
64,192,4404,1,0,0:0:0:0:
192,192,4752,1,0,0:0:0:0:
320,192,4752,1,0,0:0:0:0:
64,192,4927,1,0,0:0:0:0:
448,192,4927,1,0,0:0:0:0:
320,192,5276,1,0,0:0:0:0:
192,192,5276,1,0,0:0:0:0:
448,192,5450,1,0,0:0:0:0:
64,192,5450,1,0,0:0:0:0:
192,192,5537,1,0,0:0:0:0:
320,192,5537,1,0,0:0:0:0:
64,192,5624,1,0,0:0:0:0:
448,192,5624,1,0,0:0:0:0:
320,192,5711,1,0,0:0:0:0:
192,192,5711,1,0,0:0:0:0:
64,192,5799,1,0,0:0:0:0:
448,192,5799,1,0,0:0:0:0:
320,192,5799,1,0,0:0:0:0:
192,192,5799,1,0,0:0:0:0:
64,192,6322,1,0,0:0:0:0:
320,192,6322,1,0,0:0:0:0:
448,192,6322,1,0,0:0:0:0:
192,192,6322,1,0,0:0:0:0:
64,192,7369,1,0,0:0:0:0:
192,192,7369,1,0,0:0:0:0:
448,192,7369,1,0,0:0:0:0:
448,192,7543,1,0,0:0:0:0:
192,192,7543,1,0,0:0:0:0:
64,192,7543,1,0,0:0:0:0:
192,192,7892,1,0,0:0:0:0:
320,192,7892,1,0,0:0:0:0:
448,192,7892,1,0,0:0:0:0:
64,192,8241,1,0,0:0:0:0:
192,192,8241,1,0,0:0:0:0:
320,192,8241,1,0,0:0:0:0:
64,192,8590,1,0,0:0:0:0:
320,192,8590,1,0,0:0:0:0:
448,192,8590,1,0,0:0:0:0:
64,192,9112,1,0,0:0:0:0:
320,192,9112,1,0,0:0:0:0:
448,192,9112,1,0,0:0:0:0:
64,192,9636,1,0,0:0:0:0:
320,192,9636,1,0,0:0:0:0:
448,192,9636,1,0,0:0:0:0:
192,192,9985,1,0,0:0:0:0:
320,192,9985,1,0,0:0:0:0:
448,192,9985,1,0,0:0:0:0:
192,192,10508,1,0,0:0:0:0:
448,192,10508,1,0,0:0:0:0:
320,192,10508,1,0,0:0:0:0:
192,192,11031,1,0,0:0:0:0:
320,192,11031,1,0,0:0:0:0:
448,192,11031,1,0,0:0:0:0:
64,192,11380,1,0,0:0:0:0:
192,192,11380,1,0,0:0:0:0:
320,192,11380,1,0,0:0:0:0:
448,192,11380,1,0,0:0:0:0:
64,192,11903,1,0,0:0:0:0:
448,192,11903,1,0,0:0:0:0:
320,192,11903,1,0,0:0:0:0:
192,192,11903,1,0,0:0:0:0:
320,192,12950,1,0,0:0:0:0:
192,192,12950,1,0,0:0:0:0:
64,192,12950,1,0,0:0:0:0:
64,192,13124,1,0,0:0:0:0:
192,192,13124,1,0,0:0:0:0:
320,192,13124,1,0,0:0:0:0:
64,192,13474,1,0,0:0:0:0:
192,192,13474,1,0,0:0:0:0:
448,192,13474,1,0,0:0:0:0:
192,192,13822,1,0,0:0:0:0:
320,192,13822,1,0,0:0:0:0:
448,192,13822,1,0,0:0:0:0:
192,192,14171,1,0,0:0:0:0:
64,192,14171,1,0,0:0:0:0:
448,192,14171,128,0,14869:0:0:0:0:
64,192,14869,128,0,15566:0:0:0:0:
320,192,14869,1,0,0:0:0:0:
192,192,14869,1,0,0:0:0:0:
448,192,15566,1,0,0:0:0:0:
192,192,15566,1,0,0:0:0:0:
320,192,15566,128,0,16264:0:0:0:0:
448,192,16264,1,0,0:0:0:0:
64,192,16264,1,0,0:0:0:0:
192,192,16264,128,0,16962:0:0:0:0:
64,192,16962,1,0,0:0:0:0:
320,192,16962,1,0,0:0:0:0:
448,192,16962,1,0,0:0:0:0:
64,192,17486,1,0,0:0:0:0:
320,192,17486,1,0,0:0:0:0:
448,192,17486,1,0,0:0:0:0:
64,192,18009,1,0,0:0:0:0:
320,192,18009,1,0,0:0:0:0:
448,192,18009,1,0,0:0:0:0:
64,192,18532,1,0,0:0:0:0:
192,192,18532,1,0,0:0:0:0:
448,192,18532,1,0,0:0:0:0:
64,192,18707,1,0,0:0:0:0:
192,192,18707,1,0,0:0:0:0:
320,192,18707,1,0,0:0:0:0:
192,192,19055,1,0,0:0:0:0:
320,192,19055,1,0,0:0:0:0:
448,192,19055,1,0,0:0:0:0:
64,192,19404,1,0,0:0:0:0:
192,192,19404,1,0,0:0:0:0:
320,192,19404,1,0,0:0:0:0:
64,192,19753,1,0,0:0:0:0:
192,192,19753,1,0,0:0:0:0:
448,192,19753,1,0,0:0:0:0:
64,192,20276,1,0,0:0:0:0:
192,192,20276,1,0,0:0:0:0:
448,192,20276,1,0,0:0:0:0:
64,192,20799,1,0,0:0:0:0:
192,192,20799,1,0,0:0:0:0:
448,192,20799,1,0,0:0:0:0:
192,192,21148,1,0,0:0:0:0:
320,192,21148,1,0,0:0:0:0:
448,192,21148,1,0,0:0:0:0:
192,192,21672,1,0,0:0:0:0:
320,192,21672,1,0,0:0:0:0:
448,192,21672,1,0,0:0:0:0:
320,192,22195,1,0,0:0:0:0:
448,192,22195,1,0,0:0:0:0:
64,192,22195,1,0,0:0:0:0:
64,192,22544,1,0,0:0:0:0:
320,192,22544,1,0,0:0:0:0:
448,192,22544,1,0,0:0:0:0:
192,192,22544,1,0,0:0:0:0:
64,192,23068,1,0,0:0:0:0:
192,192,23068,1,0,0:0:0:0:
320,192,23068,1,0,0:0:0:0:
448,192,23068,1,0,0:0:0:0:
192,192,24113,1,0,0:0:0:0:
320,192,24113,1,0,0:0:0:0:
448,192,24113,1,0,0:0:0:0:
192,192,24288,1,0,0:0:0:0:
320,192,24288,1,0,0:0:0:0:
448,192,24288,1,0,0:0:0:0:
192,192,24637,1,0,0:0:0:0:
64,192,24637,1,0,0:0:0:0:
448,192,24637,1,0,0:0:0:0:
64,192,24986,1,0,0:0:0:0:
320,192,24986,1,0,0:0:0:0:
448,192,24986,1,0,0:0:0:0:
64,192,25335,1,0,0:0:0:0:
192,192,25335,1,0,0:0:0:0:
448,192,25335,128,0,26032:0:0:0:0:
192,192,26032,1,0,0:0:0:0:
64,192,26032,1,0,0:0:0:0:
320,192,26032,128,0,26730:0:0:0:0:
448,192,26730,1,0,0:0:0:0:
64,192,26730,1,0,0:0:0:0:
192,192,26730,128,0,27427:0:0:0:0:
448,192,27427,1,0,0:0:0:0:
320,192,27427,1,0,0:0:0:0:
64,192,27427,128,0,28125:0:0:0:0:
320,192,28126,1,0,0:0:0:0:
192,192,28213,1,0,0:0:0:0:
64,192,28300,1,0,0:0:0:0:
192,192,28387,1,0,0:0:0:0:
64,192,28474,1,0,0:0:0:0:
192,192,28562,1,0,0:0:0:0:
64,192,28649,1,0,0:0:0:0:
192,192,28736,1,0,0:0:0:0:
64,192,28823,1,0,0:0:0:0:
192,192,28910,1,0,0:0:0:0:
64,192,28998,1,0,0:0:0:0:
192,192,29085,1,0,0:0:0:0:
320,192,29172,1,0,0:0:0:0:
192,192,29259,1,0,0:0:0:0:
320,192,29346,1,0,0:0:0:0:
192,192,29434,1,0,0:0:0:0:
320,192,29521,1,0,0:0:0:0:
448,192,29608,1,0,0:0:0:0:
320,192,29695,1,0,0:0:0:0:
448,192,29783,1,0,0:0:0:0:
320,192,29870,1,0,0:0:0:0:
448,192,29957,1,0,0:0:0:0:
320,192,30044,1,0,0:0:0:0:
448,192,30131,1,0,0:0:0:0:
320,192,30219,1,0,0:0:0:0:
192,192,30306,1,0,0:0:0:0:
320,192,30393,1,0,0:0:0:0:
192,192,30480,1,0,0:0:0:0:
64,192,30567,1,0,0:0:0:0:
192,192,30655,1,0,0:0:0:0:
64,192,30742,1,0,0:0:0:0:
192,192,30829,1,0,0:0:0:0:
320,192,30916,1,0,0:0:0:0:
448,192,31004,1,0,0:0:0:0:
320,192,31091,1,0,0:0:0:0:
448,192,31178,1,0,0:0:0:0:
320,192,31265,1,0,0:0:0:0:
448,192,31352,1,0,0:0:0:0:
320,192,31440,1,0,0:0:0:0:
448,192,31527,1,0,0:0:0:0:
320,192,31614,1,0,0:0:0:0:
448,192,31701,1,0,0:0:0:0:
320,192,31788,1,0,0:0:0:0:
448,192,31876,1,0,0:0:0:0:
320,192,31963,1,0,0:0:0:0:
192,192,32050,1,0,0:0:0:0:
320,192,32137,1,0,0:0:0:0:
192,192,32225,1,0,0:0:0:0:
64,192,32312,1,0,0:0:0:0:
192,192,32399,1,0,0:0:0:0:
64,192,32486,1,0,0:0:0:0:
192,192,32573,1,0,0:0:0:0:
64,192,32661,1,0,0:0:0:0:
192,192,32748,1,0,0:0:0:0:
64,192,32835,1,0,0:0:0:0:
192,192,32922,1,0,0:0:0:0:
320,192,33009,1,0,0:0:0:0:
192,192,33097,1,0,0:0:0:0:
320,192,33184,1,0,0:0:0:0:
192,192,33271,1,0,0:0:0:0:
320,192,33358,1,0,0:0:0:0:
448,192,33446,1,0,0:0:0:0:
320,192,33533,1,0,0:0:0:0:
448,192,33620,1,0,0:0:0:0:
64,192,33707,1,0,0:0:0:0:
192,192,33794,1,0,0:0:0:0:
64,192,33882,1,0,0:0:0:0:
192,192,33969,1,0,0:0:0:0:
64,192,34056,1,0,0:0:0:0:
192,192,34143,1,0,0:0:0:0:
64,192,34230,1,0,0:0:0:0:
192,192,34318,1,0,0:0:0:0:
64,192,34405,1,0,0:0:0:0:
192,192,34492,1,0,0:0:0:0:
64,192,34579,1,0,0:0:0:0:
192,192,34667,1,0,0:0:0:0:
320,192,34754,1,0,0:0:0:0:
192,192,34841,1,0,0:0:0:0:
320,192,34928,1,0,0:0:0:0:
192,192,35015,1,0,0:0:0:0:
320,192,35103,1,0,0:0:0:0:
448,192,35190,1,0,0:0:0:0:
320,192,35277,1,0,0:0:0:0:
448,192,35364,1,0,0:0:0:0:
320,192,35451,1,0,0:0:0:0:
448,192,35539,1,0,0:0:0:0:
320,192,35626,1,0,0:0:0:0:
448,192,35713,1,0,0:0:0:0:
320,192,35800,1,0,0:0:0:0:
192,192,35888,1,0,0:0:0:0:
320,192,35975,1,0,0:0:0:0:
192,192,36062,1,0,0:0:0:0:
64,192,36149,1,0,0:0:0:0:
192,192,36236,1,0,0:0:0:0:
64,192,36324,1,0,0:0:0:0:
192,192,36411,1,0,0:0:0:0:
320,192,36498,1,0,0:0:0:0:
448,192,36585,1,0,0:0:0:0:
320,192,36672,1,0,0:0:0:0:
448,192,36760,1,0,0:0:0:0:
320,192,36847,1,0,0:0:0:0:
448,192,36934,1,0,0:0:0:0:
320,192,37021,1,0,0:0:0:0:
448,192,37109,1,0,0:0:0:0:
320,192,37196,1,0,0:0:0:0:
448,192,37283,1,0,0:0:0:0:
320,192,37370,1,0,0:0:0:0:
448,192,37457,1,0,0:0:0:0:
320,192,37545,1,0,0:0:0:0:
192,192,37632,1,0,0:0:0:0:
320,192,37719,1,0,0:0:0:0:
192,192,37806,1,0,0:0:0:0:
64,192,37893,1,0,0:0:0:0:
192,192,37981,1,0,0:0:0:0:
64,192,38068,1,0,0:0:0:0:
192,192,38155,1,0,0:0:0:0:
320,192,38242,1,0,0:0:0:0:
192,192,38330,1,0,0:0:0:0:
320,192,38417,1,0,0:0:0:0:
192,192,38504,1,0,0:0:0:0:
320,192,38591,1,0,0:0:0:0:
448,192,38678,1,0,0:0:0:0:
320,192,38766,1,0,0:0:0:0:
448,192,38853,1,0,0:0:0:0:
320,192,38940,1,0,0:0:0:0:
192,192,39027,1,0,0:0:0:0:
320,192,39114,1,0,0:0:0:0:
192,192,39202,1,0,0:0:0:0:
64,192,39289,1,0,0:0:0:0:
192,192,39376,1,0,0:0:0:0:
64,192,39463,1,0,0:0:0:0:
192,192,39551,1,0,0:0:0:0:
64,192,39638,1,0,0:0:0:0:
192,192,39725,1,0,0:0:0:0:
64,192,39812,1,0,0:0:0:0:
192,192,39899,1,0,0:0:0:0:
64,192,39987,1,0,0:0:0:0:
192,192,40074,1,0,0:0:0:0:
64,192,40161,1,0,0:0:0:0:
192,192,40248,1,0,0:0:0:0:
320,192,40335,1,0,0:0:0:0:
192,192,40423,1,0,0:0:0:0:
320,192,40510,1,0,0:0:0:0:
192,192,40597,1,0,0:0:0:0:
320,192,40684,1,0,0:0:0:0:
448,192,40772,1,0,0:0:0:0:
320,192,40859,1,0,0:0:0:0:
448,192,40946,1,0,0:0:0:0:
320,192,41033,1,0,0:0:0:0:
448,192,41120,1,0,0:0:0:0:
320,192,41208,1,0,0:0:0:0:
448,192,41295,1,0,0:0:0:0:
320,192,41382,1,0,0:0:0:0:
192,192,41469,1,0,0:0:0:0:
320,192,41556,1,0,0:0:0:0:
192,192,41644,1,0,0:0:0:0:
64,192,41731,1,0,0:0:0:0:
192,192,41818,1,0,0:0:0:0:
64,192,41905,1,0,0:0:0:0:
192,192,41993,1,0,0:0:0:0:
320,192,42080,1,0,0:0:0:0:
448,192,42167,1,0,0:0:0:0:
320,192,42254,1,0,0:0:0:0:
448,192,42341,1,0,0:0:0:0:
320,192,42429,1,0,0:0:0:0:
448,192,42516,1,0,0:0:0:0:
320,192,42603,1,0,0:0:0:0:
448,192,42690,1,0,0:0:0:0:
320,192,42777,1,0,0:0:0:0:
448,192,42865,1,0,0:0:0:0:
320,192,42952,1,0,0:0:0:0:
448,192,43039,1,0,0:0:0:0:
320,192,43126,1,0,0:0:0:0:
192,192,43213,1,0,0:0:0:0:
320,192,43301,1,0,0:0:0:0:
192,192,43388,1,0,0:0:0:0:
64,192,43475,1,0,0:0:0:0:
192,192,43562,1,0,0:0:0:0:
64,192,43650,1,0,0:0:0:0:
192,192,43737,1,0,0:0:0:0:
64,192,43824,1,0,0:0:0:0:
192,192,43911,1,0,0:0:0:0:
64,192,43998,1,0,0:0:0:0:
192,192,44086,1,0,0:0:0:0:
320,192,44173,1,0,0:0:0:0:
192,192,44260,1,0,0:0:0:0:
320,192,44347,1,0,0:0:0:0:
192,192,44434,1,0,0:0:0:0:
320,192,44522,1,0,0:0:0:0:
448,192,44609,1,0,0:0:0:0:
320,192,44696,1,0,0:0:0:0:
448,192,44783,1,0,0:0:0:0:
320,192,44871,1,0,0:0:0:0:
192,192,44958,1,0,0:0:0:0:
320,192,45045,1,0,0:0:0:0:
192,192,45132,1,0,0:0:0:0:
320,192,45219,1,0,0:0:0:0:
192,192,45307,1,0,0:0:0:0:
320,192,45394,1,0,0:0:0:0:
192,192,45481,1,0,0:0:0:0:
320,192,45568,1,0,0:0:0:0:
192,192,45655,1,0,0:0:0:0:
320,192,45743,1,0,0:0:0:0:
192,192,45830,1,0,0:0:0:0:
64,192,45917,1,0,0:0:0:0:
192,192,46004,1,0,0:0:0:0:
64,192,46092,1,0,0:0:0:0:
192,192,46179,1,0,0:0:0:0:
320,192,46266,1,0,0:0:0:0:
192,192,46353,1,0,0:0:0:0:
320,192,46440,1,0,0:0:0:0:
192,192,46528,1,0,0:0:0:0:
320,192,46615,1,0,0:0:0:0:
192,192,46702,1,0,0:0:0:0:
320,192,46789,1,0,0:0:0:0:
192,192,46876,1,0,0:0:0:0:
320,192,46964,1,0,0:0:0:0:
448,192,47051,1,0,0:0:0:0:
320,192,47138,1,0,0:0:0:0:
448,192,47225,1,0,0:0:0:0:
320,192,47313,1,0,0:0:0:0:
192,192,47400,1,0,0:0:0:0:
320,192,47487,1,0,0:0:0:0:
192,192,47574,1,0,0:0:0:0:
64,192,47661,1,0,0:0:0:0:
448,192,47661,1,0,0:0:0:0:
320,192,47749,1,0,0:0:0:0:
192,192,47836,1,0,0:0:0:0:
64,192,47836,1,0,0:0:0:0:
320,192,47923,1,0,0:0:0:0:
448,192,48010,1,0,0:0:0:0:
64,192,48010,1,0,0:0:0:0:
192,192,48097,1,0,0:0:0:0:
320,192,48185,1,0,0:0:0:0:
448,192,48185,1,0,0:0:0:0:
192,192,48272,1,0,0:0:0:0:
64,192,48359,1,0,0:0:0:0:
448,192,48359,1,0,0:0:0:0:
320,192,48446,1,0,0:0:0:0:
192,192,48534,1,0,0:0:0:0:
64,192,48534,1,0,0:0:0:0:
320,192,48621,1,0,0:0:0:0:
448,192,48708,1,0,0:0:0:0:
64,192,48708,1,0,0:0:0:0:
192,192,48795,1,0,0:0:0:0:
320,192,48882,1,0,0:0:0:0:
448,192,48882,1,0,0:0:0:0:
64,192,48970,1,0,0:0:0:0:
192,192,49057,1,0,0:0:0:0:
320,192,49057,1,0,0:0:0:0:
448,192,49144,1,0,0:0:0:0:
192,192,49231,1,0,0:0:0:0:
64,192,49231,1,0,0:0:0:0:
448,192,49318,1,0,0:0:0:0:
320,192,49406,1,0,0:0:0:0:
192,192,49406,1,0,0:0:0:0:
64,192,49493,1,0,0:0:0:0:
320,192,49580,1,0,0:0:0:0:
448,192,49580,1,0,0:0:0:0:
64,192,49667,1,0,0:0:0:0:
192,192,49755,1,0,0:0:0:0:
320,192,49755,1,0,0:0:0:0:
448,192,49842,1,0,0:0:0:0:
192,192,49929,1,0,0:0:0:0:
64,192,49929,1,0,0:0:0:0:
448,192,50016,1,0,0:0:0:0:
320,192,50103,1,0,0:0:0:0:
192,192,50103,1,0,0:0:0:0:
64,192,50191,1,0,0:0:0:0:
320,192,50278,1,0,0:0:0:0:
448,192,50278,1,0,0:0:0:0:
64,192,50365,1,0,0:0:0:0:
320,192,50452,1,0,0:0:0:0:
448,192,50452,1,0,0:0:0:0:
192,192,50539,1,0,0:0:0:0:
64,192,50627,1,0,0:0:0:0:
448,192,50627,1,0,0:0:0:0:
192,192,50714,1,0,0:0:0:0:
320,192,50801,1,0,0:0:0:0:
448,192,50801,1,0,0:0:0:0:
192,192,50888,1,0,0:0:0:0:
64,192,50976,1,0,0:0:0:0:
448,192,50976,1,0,0:0:0:0:
192,192,51063,1,0,0:0:0:0:
320,192,51150,1,0,0:0:0:0:
448,192,51150,1,0,0:0:0:0:
192,192,51237,1,0,0:0:0:0:
64,192,51324,1,0,0:0:0:0:
448,192,51324,1,0,0:0:0:0:
192,192,51412,1,0,0:0:0:0:
320,192,51499,1,0,0:0:0:0:
448,192,51499,1,0,0:0:0:0:
192,192,51586,1,0,0:0:0:0:
64,192,51673,1,0,0:0:0:0:
448,192,51673,1,0,0:0:0:0:
320,192,51760,1,0,0:0:0:0:
448,192,51848,1,0,0:0:0:0:
64,192,51848,1,0,0:0:0:0:
192,192,51935,1,0,0:0:0:0:
320,192,52022,1,0,0:0:0:0:
64,192,52022,1,0,0:0:0:0:
192,192,52109,1,0,0:0:0:0:
64,192,52197,1,0,0:0:0:0:
448,192,52197,1,0,0:0:0:0:
320,192,52284,1,0,0:0:0:0:
448,192,52371,1,0,0:0:0:0:
192,192,52371,1,0,0:0:0:0:
320,192,52458,1,0,0:0:0:0:
448,192,52545,1,0,0:0:0:0:
64,192,52545,1,0,0:0:0:0:
192,192,52633,1,0,0:0:0:0:
320,192,52720,1,0,0:0:0:0:
64,192,52720,1,0,0:0:0:0:
192,192,52807,1,0,0:0:0:0:
64,192,52894,1,0,0:0:0:0:
448,192,52894,1,0,0:0:0:0:
320,192,52981,1,0,0:0:0:0:
192,192,53069,1,0,0:0:0:0:
448,192,53069,1,0,0:0:0:0:
320,192,53156,1,0,0:0:0:0:
192,192,53243,1,0,0:0:0:0:
64,192,53243,1,0,0:0:0:0:
320,192,53330,1,0,0:0:0:0:
448,192,53418,1,0,0:0:0:0:
64,192,53418,1,0,0:0:0:0:
320,192,53505,1,0,0:0:0:0:
192,192,53592,1,0,0:0:0:0:
64,192,53592,1,0,0:0:0:0:
320,192,53679,1,0,0:0:0:0:
448,192,53766,1,0,0:0:0:0:
64,192,53766,1,0,0:0:0:0:
320,192,53854,1,0,0:0:0:0:
192,192,53941,1,0,0:0:0:0:
64,192,53941,1,0,0:0:0:0:
320,192,54028,1,0,0:0:0:0:
448,192,54115,1,0,0:0:0:0:
64,192,54115,1,0,0:0:0:0:
320,192,54202,1,0,0:0:0:0:
192,192,54290,1,0,0:0:0:0:
64,192,54290,1,0,0:0:0:0:
320,192,54377,1,0,0:0:0:0:
448,192,54464,1,0,0:0:0:0:
64,192,54464,1,0,0:0:0:0:
320,192,54551,1,0,0:0:0:0:
192,192,54639,1,0,0:0:0:0:
64,192,54639,1,0,0:0:0:0:
320,192,54726,1,0,0:0:0:0:
448,192,54813,1,0,0:0:0:0:
192,192,54813,1,0,0:0:0:0:
64,192,54900,1,0,0:0:0:0:
192,192,54987,1,0,0:0:0:0:
320,192,54987,1,0,0:0:0:0:
448,192,55075,1,0,0:0:0:0:
320,192,55162,1,0,0:0:0:0:
64,192,55162,1,0,0:0:0:0:
192,192,55249,1,0,0:0:0:0:
448,192,55336,1,0,0:0:0:0:
320,192,55336,1,0,0:0:0:0:
192,192,55423,1,0,0:0:0:0:
64,192,55511,1,0,0:0:0:0:
320,192,55511,1,0,0:0:0:0:
448,192,55598,1,0,0:0:0:0:
320,192,55685,1,0,0:0:0:0:
192,192,55685,1,0,0:0:0:0:
64,192,55772,1,0,0:0:0:0:
192,192,55860,1,0,0:0:0:0:
448,192,55860,1,0,0:0:0:0:
320,192,55947,1,0,0:0:0:0:
192,192,56034,1,0,0:0:0:0:
64,192,56034,1,0,0:0:0:0:
320,192,56121,1,0,0:0:0:0:
448,192,56208,1,0,0:0:0:0:
192,192,56208,1,0,0:0:0:0:
320,192,56296,1,0,0:0:0:0:
448,192,56383,1,0,0:0:0:0:
64,192,56383,1,0,0:0:0:0:
192,192,56470,1,0,0:0:0:0:
320,192,56557,1,0,0:0:0:0:
64,192,56557,1,0,0:0:0:0:
192,192,56644,1,0,0:0:0:0:
320,192,56732,1,0,0:0:0:0:
448,192,56732,1,0,0:0:0:0:
192,192,56819,1,0,0:0:0:0:
64,192,56906,1,0,0:0:0:0:
320,192,56906,1,0,0:0:0:0:
192,192,56993,1,0,0:0:0:0:
64,192,57081,1,0,0:0:0:0:
448,192,57081,1,0,0:0:0:0:
320,192,57168,1,0,0:0:0:0:
448,192,57255,1,0,0:0:0:0:
192,192,57255,1,0,0:0:0:0:
320,192,57342,1,0,0:0:0:0:
64,192,57429,1,0,0:0:0:0:
448,192,57429,1,0,0:0:0:0:
192,192,57517,1,0,0:0:0:0:
64,192,57604,1,0,0:0:0:0:
448,192,57604,1,0,0:0:0:0:
320,192,57691,1,0,0:0:0:0:
448,192,57778,1,0,0:0:0:0:
64,192,57778,1,0,0:0:0:0:
192,192,57865,1,0,0:0:0:0:
64,192,57953,1,0,0:0:0:0:
448,192,57953,1,0,0:0:0:0:
320,192,58040,1,0,0:0:0:0:
448,192,58127,1,0,0:0:0:0:
64,192,58127,1,0,0:0:0:0:
192,192,58214,1,0,0:0:0:0:
64,192,58301,1,0,0:0:0:0:
448,192,58301,1,0,0:0:0:0:
320,192,58389,1,0,0:0:0:0:
448,192,58476,1,0,0:0:0:0:
64,192,58476,1,0,0:0:0:0:
192,192,58563,1,0,0:0:0:0:
64,192,58650,1,0,0:0:0:0:
448,192,58650,1,0,0:0:0:0:
320,192,58738,1,0,0:0:0:0:
448,192,58825,1,0,0:0:0:0:
64,192,58825,1,0,0:0:0:0:
192,192,58912,1,0,0:0:0:0:
320,192,58999,1,0,0:0:0:0:
64,192,58999,1,0,0:0:0:0:
448,192,59086,1,0,0:0:0:0:
320,192,59174,1,0,0:0:0:0:
192,192,59174,1,0,0:0:0:0:
64,192,59261,1,0,0:0:0:0:
448,192,59348,1,0,0:0:0:0:
320,192,59348,1,0,0:0:0:0:
192,192,59435,1,0,0:0:0:0:
64,192,59522,1,0,0:0:0:0:
320,192,59522,1,0,0:0:0:0:
448,192,59610,1,0,0:0:0:0:
320,192,59697,1,0,0:0:0:0:
64,192,59697,1,0,0:0:0:0:
192,192,59784,1,0,0:0:0:0:
320,192,59871,1,0,0:0:0:0:
448,192,59871,1,0,0:0:0:0:
64,192,59959,1,0,0:0:0:0:
192,192,60046,1,0,0:0:0:0:
448,192,60046,1,0,0:0:0:0:
320,192,60133,1,0,0:0:0:0:
448,192,60220,1,0,0:0:0:0:
64,192,60220,1,0,0:0:0:0:
192,192,60307,1,0,0:0:0:0:
320,192,60395,1,0,0:0:0:0:
64,192,60395,1,0,0:0:0:0:
192,192,60482,1,0,0:0:0:0:
64,192,60569,1,0,0:0:0:0:
448,192,60569,1,0,0:0:0:0:
320,192,60656,1,0,0:0:0:0:
448,192,60743,1,0,0:0:0:0:
192,192,60743,1,0,0:0:0:0:
64,192,60831,1,0,0:0:0:0:
448,192,60918,1,0,0:0:0:0:
192,192,60918,1,0,0:0:0:0:
320,192,61005,1,0,0:0:0:0:
448,192,61092,1,0,0:0:0:0:
192,192,61092,1,0,0:0:0:0:
64,192,61180,1,0,0:0:0:0:
192,192,61267,1,0,0:0:0:0:
320,192,61267,1,0,0:0:0:0:
448,192,61354,1,0,0:0:0:0:
320,192,61441,1,0,0:0:0:0:
64,192,61441,1,0,0:0:0:0:
192,192,61528,1,0,0:0:0:0:
64,192,61616,1,0,0:0:0:0:
320,192,61616,1,0,0:0:0:0:
448,192,61703,1,0,0:0:0:0:
320,192,61790,1,0,0:0:0:0:
64,192,61790,1,0,0:0:0:0:
192,192,61877,1,0,0:0:0:0:
320,192,61964,1,0,0:0:0:0:
448,192,61964,1,0,0:0:0:0:
64,192,62052,1,0,0:0:0:0:
192,192,62139,1,0,0:0:0:0:
320,192,62139,1,0,0:0:0:0:
448,192,62226,1,0,0:0:0:0:
192,192,62313,1,0,0:0:0:0:
64,192,62313,1,0,0:0:0:0:
320,192,62401,1,0,0:0:0:0:
448,192,62488,1,0,0:0:0:0:
64,192,62488,1,0,0:0:0:0:
192,192,62575,1,0,0:0:0:0:
320,192,62662,1,0,0:0:0:0:
448,192,62662,1,0,0:0:0:0:
192,192,62749,1,0,0:0:0:0:
64,192,62837,1,0,0:0:0:0:
320,192,62837,1,0,0:0:0:0:
448,192,62924,1,0,0:0:0:0:
320,192,63011,1,0,0:0:0:0:
192,192,63011,1,0,0:0:0:0:
64,192,63098,1,0,0:0:0:0:
448,192,63185,1,0,0:0:0:0:
192,192,63185,1,0,0:0:0:0:
320,192,63273,1,0,0:0:0:0:
448,192,63360,1,0,0:0:0:0:
64,192,63360,1,0,0:0:0:0:
192,192,63447,1,0,0:0:0:0:
64,192,63534,1,0,0:0:0:0:
320,192,63534,1,0,0:0:0:0:
448,192,63622,1,0,0:0:0:0:
320,192,63709,1,0,0:0:0:0:
192,192,63709,1,0,0:0:0:0:
64,192,63796,1,0,0:0:0:0:
448,192,63883,1,0,0:0:0:0:
320,192,63883,1,0,0:0:0:0:
192,192,63970,1,0,0:0:0:0:
64,192,64058,1,0,0:0:0:0:
448,192,64058,1,0,0:0:0:0:
320,192,64145,1,0,0:0:0:0:
192,192,64232,1,0,0:0:0:0:
64,192,64232,1,0,0:0:0:0:
448,192,64319,1,0,0:0:0:0:
320,192,64406,1,0,0:0:0:0:
192,192,64406,1,0,0:0:0:0:
64,192,64494,1,0,0:0:0:0:
192,192,64581,1,0,0:0:0:0:
448,192,64581,1,0,0:0:0:0:
320,192,64668,1,0,0:0:0:0:
448,192,64755,1,0,0:0:0:0:
192,192,64755,1,0,0:0:0:0:
320,192,64843,1,0,0:0:0:0:
192,192,64930,1,0,0:0:0:0:
64,192,64930,1,0,0:0:0:0:
448,192,65017,1,0,0:0:0:0:
320,192,65104,1,0,0:0:0:0:
64,192,65104,1,0,0:0:0:0:
192,192,65191,1,0,0:0:0:0:
64,192,65279,1,0,0:0:0:0:
320,192,65279,1,0,0:0:0:0:
192,192,65366,1,0,0:0:0:0:
320,192,65453,1,0,0:0:0:0:
448,192,65453,1,0,0:0:0:0:
64,192,65540,1,0,0:0:0:0:
192,192,65627,1,0,0:0:0:0:
448,192,65627,1,0,0:0:0:0:
320,192,65715,1,0,0:0:0:0:
448,192,65802,1,0,0:0:0:0:
64,192,65802,1,0,0:0:0:0:
192,192,65889,1,0,0:0:0:0:
64,192,65976,1,0,0:0:0:0:
320,192,65976,1,0,0:0:0:0:
448,192,66064,1,0,0:0:0:0:
320,192,66151,1,0,0:0:0:0:
192,192,66151,1,0,0:0:0:0:
64,192,66238,1,0,0:0:0:0:
192,192,66325,1,0,0:0:0:0:
448,192,66325,1,0,0:0:0:0:
320,192,66412,1,0,0:0:0:0:
448,192,66500,1,0,0:0:0:0:
64,192,66500,1,0,0:0:0:0:
192,192,66587,1,0,0:0:0:0:
64,192,66674,1,0,0:0:0:0:
320,192,66674,1,0,0:0:0:0:
448,192,66761,1,0,0:0:0:0:
320,192,66848,1,0,0:0:0:0:
192,192,66848,1,0,0:0:0:0:
64,192,66936,1,0,0:0:0:0:
192,192,67023,1,0,0:0:0:0:
448,192,67023,1,0,0:0:0:0:
320,192,67110,1,0,0:0:0:0:
448,192,67197,1,0,0:0:0:0:
64,192,67197,1,0,0:0:0:0:
192,192,67285,1,0,0:0:0:0:
320,192,67372,1,0,0:0:0:0:
448,192,67372,1,0,0:0:0:0:
192,192,67459,1,0,0:0:0:0:
64,192,67546,1,0,0:0:0:0:
320,192,67546,1,0,0:0:0:0:
192,192,67633,1,0,0:0:0:0:
64,192,67721,1,0,0:0:0:0:
448,192,67721,1,0,0:0:0:0:
320,192,67808,1,0,0:0:0:0:
448,192,67895,1,0,0:0:0:0:
192,192,67895,1,0,0:0:0:0:
64,192,67982,1,0,0:0:0:0:
192,192,68069,1,0,0:0:0:0:
320,192,68069,1,0,0:0:0:0:
448,192,68157,1,0,0:0:0:0:
192,192,68244,1,0,0:0:0:0:
64,192,68244,1,0,0:0:0:0:
320,192,68331,1,0,0:0:0:0:
448,192,68418,1,0,0:0:0:0:
64,192,68418,1,0,0:0:0:0:
320,192,68506,1,0,0:0:0:0:
192,192,68593,1,0,0:0:0:0:
64,192,68593,1,0,0:0:0:0:
448,192,68680,1,0,0:0:0:0:
320,192,68767,1,0,0:0:0:0:
192,192,68767,1,0,0:0:0:0:
64,192,68854,1,0,0:0:0:0:
320,192,68942,1,0,0:0:0:0:
448,192,68942,1,0,0:0:0:0:
192,192,69029,1,0,0:0:0:0:
64,192,69116,1,0,0:0:0:0:
448,192,69116,1,0,0:0:0:0:
192,192,69203,1,0,0:0:0:0:
320,192,69290,1,0,0:0:0:0:
448,192,69290,1,0,0:0:0:0:
64,192,69378,1,0,0:0:0:0:
192,192,69465,1,0,0:0:0:0:
448,192,69465,1,0,0:0:0:0:
320,192,69552,1,0,0:0:0:0:
448,192,69639,1,0,0:0:0:0:
64,192,69639,1,0,0:0:0:0:
192,192,69727,1,0,0:0:0:0:
320,192,69814,1,0,0:0:0:0:
448,192,69814,1,0,0:0:0:0:
192,192,69901,1,0,0:0:0:0:
64,192,69988,1,0,0:0:0:0:
320,192,69988,1,0,0:0:0:0:
448,192,70075,1,0,0:0:0:0:
320,192,70163,1,0,0:0:0:0:
192,192,70163,1,0,0:0:0:0:
64,192,70250,1,0,0:0:0:0:
192,192,70337,1,0,0:0:0:0:
448,192,70337,1,0,0:0:0:0:
320,192,70424,1,0,0:0:0:0:
448,192,70511,1,0,0:0:0:0:
192,192,70511,1,0,0:0:0:0:
320,192,70599,1,0,0:0:0:0:
192,192,70686,1,0,0:0:0:0:
64,192,70686,1,0,0:0:0:0:
448,192,70773,1,0,0:0:0:0:
320,192,70860,1,0,0:0:0:0:
64,192,70860,1,0,0:0:0:0:
192,192,70948,1,0,0:0:0:0:
64,192,71035,1,0,0:0:0:0:
320,192,71035,1,0,0:0:0:0:
448,192,71122,1,0,0:0:0:0:
320,192,71209,1,0,0:0:0:0:
192,192,71209,1,0,0:0:0:0:
64,192,71296,1,0,0:0:0:0:
192,192,71384,1,0,0:0:0:0:
448,192,71384,1,0,0:0:0:0:
320,192,71471,1,0,0:0:0:0:
448,192,71558,1,0,0:0:0:0:
64,192,71558,1,0,0:0:0:0:
192,192,71645,1,0,0:0:0:0:
64,192,71732,1,0,0:0:0:0:
320,192,71732,1,0,0:0:0:0:
448,192,71820,1,0,0:0:0:0:
320,192,71907,1,0,0:0:0:0:
192,192,71907,1,0,0:0:0:0:
64,192,71994,1,0,0:0:0:0:
192,192,72081,1,0,0:0:0:0:
448,192,72081,1,0,0:0:0:0:
320,192,72169,1,0,0:0:0:0:
448,192,72256,1,0,0:0:0:0:
192,192,72256,1,0,0:0:0:0:
320,192,72343,1,0,0:0:0:0:
192,192,72430,1,0,0:0:0:0:
64,192,72430,1,0,0:0:0:0:
448,192,72517,1,0,0:0:0:0:
320,192,72605,1,0,0:0:0:0:
64,192,72605,1,0,0:0:0:0:
192,192,72692,1,0,0:0:0:0:
64,192,72779,1,0,0:0:0:0:
320,192,72779,1,0,0:0:0:0:
448,192,72866,1,0,0:0:0:0:
320,192,72953,1,0,0:0:0:0:
64,192,72953,1,0,0:0:0:0:
192,192,73041,1,0,0:0:0:0:
64,192,73128,1,0,0:0:0:0:
448,192,73128,1,0,0:0:0:0:
320,192,73215,1,0,0:0:0:0:
448,192,73302,1,0,0:0:0:0:
192,192,73302,1,0,0:0:0:0:
64,192,73389,1,0,0:0:0:0:
192,192,73477,1,0,0:0:0:0:
320,192,73477,1,0,0:0:0:0:
448,192,73564,1,0,0:0:0:0:
320,192,73651,1,0,0:0:0:0:
64,192,73651,1,0,0:0:0:0:
192,192,73738,1,0,0:0:0:0:
320,192,73826,1,0,0:0:0:0:
448,192,73826,1,0,0:0:0:0:
64,192,73913,1,0,0:0:0:0:
192,192,74000,1,0,0:0:0:0:
448,192,74000,1,0,0:0:0:0:
320,192,74087,1,0,0:0:0:0:
448,192,74174,1,0,0:0:0:0:
192,192,74174,1,0,0:0:0:0:
320,192,74262,1,0,0:0:0:0:
448,192,74349,1,0,0:0:0:0:
64,192,74349,1,0,0:0:0:0:
192,192,74436,1,0,0:0:0:0:
64,192,74523,1,0,0:0:0:0:
448,192,74523,1,0,0:0:0:0:
320,192,74610,1,0,0:0:0:0:
448,192,74698,1,0,0:0:0:0:
64,192,74698,1,0,0:0:0:0:
192,192,74785,1,0,0:0:0:0:
320,192,74872,1,0,0:0:0:0:
448,192,74872,1,0,0:0:0:0:
192,192,74959,1,0,0:0:0:0:
64,192,75047,1,0,0:0:0:0:
448,192,75047,1,0,0:0:0:0:
320,192,75134,1,0,0:0:0:0:
448,192,75221,1,0,0:0:0:0:
64,192,75221,1,0,0:0:0:0:
192,192,75308,1,0,0:0:0:0:
64,192,75395,1,0,0:0:0:0:
320,192,75395,1,0,0:0:0:0:
192,192,75483,1,0,0:0:0:0:
448,192,75570,1,0,0:0:0:0:
320,192,75570,1,0,0:0:0:0:
64,192,79407,1,0,0:0:0:0:
192,192,79494,1,0,0:0:0:0:
320,192,79582,1,0,0:0:0:0:
448,192,79669,1,0,0:0:0:0:
320,192,79756,1,0,0:0:0:0:
192,192,79756,1,0,0:0:0:0:
64,192,79756,1,0,0:0:0:0:
320,192,80279,1,0,0:0:0:0:
192,192,80279,1,0,0:0:0:0:
64,192,80279,1,0,0:0:0:0:
192,192,81325,1,0,0:0:0:0:
320,192,81325,1,0,0:0:0:0:
448,192,81325,1,0,0:0:0:0:
448,192,81500,1,0,0:0:0:0:
320,192,81500,1,0,0:0:0:0:
192,192,81500,1,0,0:0:0:0:
448,192,81849,1,0,0:0:0:0:
320,192,81849,1,0,0:0:0:0:
64,192,81849,1,0,0:0:0:0:
64,192,82198,1,0,0:0:0:0:
192,192,82198,1,0,0:0:0:0:
448,192,82198,1,0,0:0:0:0:
64,192,82547,1,0,0:0:0:0:
320,192,82547,1,0,0:0:0:0:
448,192,82547,1,0,0:0:0:0:
64,192,83070,1,0,0:0:0:0:
320,192,83070,1,0,0:0:0:0:
448,192,83070,1,0,0:0:0:0:
64,192,83593,1,0,0:0:0:0:
320,192,83593,1,0,0:0:0:0:
448,192,83593,1,0,0:0:0:0:
192,192,83942,1,0,0:0:0:0:
320,192,83942,1,0,0:0:0:0:
448,192,83942,1,0,0:0:0:0:
192,192,84465,1,0,0:0:0:0:
320,192,84465,1,0,0:0:0:0:
448,192,84465,1,0,0:0:0:0:
64,192,84989,1,0,0:0:0:0:
192,192,84989,1,0,0:0:0:0:
448,192,84989,1,0,0:0:0:0:
64,192,85338,1,0,0:0:0:0:
192,192,85338,1,0,0:0:0:0:
320,192,85338,1,0,0:0:0:0:
448,192,85338,1,0,0:0:0:0:
64,192,85861,1,0,0:0:0:0:
192,192,85861,1,0,0:0:0:0:
320,192,85861,1,0,0:0:0:0:
448,192,85861,1,0,0:0:0:0:
192,192,86907,1,0,0:0:0:0:
64,192,86907,1,0,0:0:0:0:
448,192,86907,1,0,0:0:0:0:
192,192,87083,1,0,0:0:0:0:
64,192,87083,1,0,0:0:0:0:
320,192,87083,1,0,0:0:0:0:
192,192,87431,1,0,0:0:0:0:
320,192,87431,1,0,0:0:0:0:
448,192,87431,1,0,0:0:0:0:
64,192,87780,1,0,0:0:0:0:
320,192,87780,1,0,0:0:0:0:
192,192,87780,1,0,0:0:0:0:
448,192,88129,128,0,88826:0:0:0:0:
64,192,88129,1,0,0:0:0:0:
320,192,88826,1,0,0:0:0:0:
192,192,88826,128,0,89524:0:0:0:0:
320,192,89524,128,0,90221:0:0:0:0:
448,192,89524,1,0,0:0:0:0:
192,192,90221,1,0,0:0:0:0:
64,192,90221,128,0,90919:0:0:0:0:
192,192,90919,1,0,0:0:0:0:
320,192,90919,1,0,0:0:0:0:
448,192,90919,1,0,0:0:0:0:
192,192,91443,1,0,0:0:0:0:
320,192,91443,1,0,0:0:0:0:
448,192,91443,1,0,0:0:0:0:
192,192,91966,1,0,0:0:0:0:
320,192,91966,1,0,0:0:0:0:
448,192,91966,1,0,0:0:0:0:
64,192,92489,1,0,0:0:0:0:
192,192,92489,1,0,0:0:0:0:
320,192,92489,1,0,0:0:0:0:
320,192,92664,1,0,0:0:0:0:
64,192,92664,1,0,0:0:0:0:
192,192,92664,1,0,0:0:0:0:
64,192,93013,1,0,0:0:0:0:
320,192,93013,1,0,0:0:0:0:
448,192,93013,1,0,0:0:0:0:
64,192,93362,1,0,0:0:0:0:
192,192,93362,1,0,0:0:0:0:
448,192,93362,1,0,0:0:0:0:
192,192,93710,1,0,0:0:0:0:
320,192,93710,1,0,0:0:0:0:
448,192,93710,1,0,0:0:0:0:
192,192,94233,1,0,0:0:0:0:
320,192,94233,1,0,0:0:0:0:
448,192,94233,1,0,0:0:0:0:
192,192,94756,1,0,0:0:0:0:
320,192,94756,1,0,0:0:0:0:
448,192,94756,1,0,0:0:0:0:
64,192,95106,1,0,0:0:0:0:
320,192,95106,1,0,0:0:0:0:
448,192,95106,1,0,0:0:0:0:
64,192,95629,1,0,0:0:0:0:
320,192,95629,1,0,0:0:0:0:
448,192,95629,1,0,0:0:0:0:
64,192,96153,1,0,0:0:0:0:
448,192,96153,1,0,0:0:0:0:
192,192,96153,1,0,0:0:0:0:
64,192,96502,1,0,0:0:0:0:
192,192,96502,1,0,0:0:0:0:
320,192,96502,1,0,0:0:0:0:
448,192,96502,1,0,0:0:0:0:
64,192,97025,1,0,0:0:0:0:
192,192,97025,1,0,0:0:0:0:
320,192,97025,1,0,0:0:0:0:
448,192,97025,1,0,0:0:0:0:
192,192,98070,1,0,0:0:0:0:
320,192,98070,1,0,0:0:0:0:
448,192,98070,1,0,0:0:0:0:
320,192,98246,1,0,0:0:0:0:
192,192,98246,1,0,0:0:0:0:
64,192,98246,1,0,0:0:0:0:
64,192,98594,1,0,0:0:0:0:
192,192,98594,1,0,0:0:0:0:
448,192,98594,1,0,0:0:0:0:
64,192,98943,1,0,0:0:0:0:
320,192,98943,1,0,0:0:0:0:
448,192,98943,1,0,0:0:0:0:
192,192,99292,1,0,0:0:0:0:
320,192,99292,1,0,0:0:0:0:
448,192,99292,128,0,100687:0:0:0:0:
320,192,99815,1,0,0:0:0:0:
320,192,99990,1,0,0:0:0:0:
192,192,100513,1,0,0:0:0:0:
192,192,100687,1,0,0:0:0:0:
64,192,100862,1,0,0:0:0:0:
320,192,100862,1,0,0:0:0:0:
448,192,100862,1,0,0:0:0:0:
64,192,101037,1,0,0:0:0:0:
320,192,101037,1,0,0:0:0:0:
448,192,101037,1,0,0:0:0:0:
192,192,101385,1,0,0:0:0:0:
320,192,101385,1,0,0:0:0:0:
448,192,101385,1,0,0:0:0:0:
64,192,101734,1,0,0:0:0:0:
320,192,101734,1,0,0:0:0:0:
448,192,101734,1,0,0:0:0:0:
192,192,102083,1,0,0:0:0:0:
448,192,102083,1,0,0:0:0:0:
64,192,102083,128,0,103478:0:0:0:0:
192,192,102606,1,0,0:0:0:0:
192,192,102781,1,0,0:0:0:0:
448,192,103304,1,0,0:0:0:0:
448,192,103478,1,0,0:0:0:0:
64,192,103653,1,0,0:0:0:0:
192,192,103653,1,0,0:0:0:0:
320,192,103653,1,0,0:0:0:0:
64,192,103827,1,0,0:0:0:0:
320,192,103827,1,0,0:0:0:0:
192,192,103827,1,0,0:0:0:0:
64,192,104176,1,0,0:0:0:0:
320,192,104176,1,0,0:0:0:0:
448,192,104176,1,0,0:0:0:0:
64,192,104525,1,0,0:0:0:0:
192,192,104525,1,0,0:0:0:0:
320,192,104525,1,0,0:0:0:0:
448,192,104525,1,0,0:0:0:0:
192,192,106269,128,0,107752:0:0:0:0:
320,192,106269,128,0,107665:0:0:0:0:
64,192,106269,1,0,0:0:0:0:
448,192,106269,1,0,0:0:0:0:
448,192,107665,128,0,107926:0:0:0:0:
320,192,107752,128,0,108014:0:0:0:0:
192,192,107839,128,0,108101:0:0:0:0:
64,192,107926,128,0,108188:0:0:0:0:
448,192,108014,128,0,108275:0:0:0:0:
320,192,108101,128,0,108799:0:0:0:0:
192,192,108188,128,0,109322:0:0:0:0:
64,192,108275,128,0,110020:0:0:0:0:
448,192,108362,128,0,110107:0:0:0:0:
320,192,108886,128,0,113944:0:0:0:0:
192,192,109409,128,0,113944:0:0:0:0:
64,192,110107,1,0,0:0:0:0:
448,192,111153,128,0,113944:0:0:0:0:
64,192,111153,128,0,113944:0:0:0:0:
